Видео в vk



  • Часть видео проигрывается, часть в постоянной загрузке висит. У самого ума понять от чего зависит не хватает. Скачал файлы, глянул медиаинфо. Проигрываются: [spoiler][code] General Complete name : D:\Downloads\ДТП под Уфой - 720x540.mpeg Format : MPEG-4 Format profile : Base Media Codec ID : isom File size : 3.66 MiB Duration : 19s 560ms Overall bit rate mode : Variable Overall bit rate : 1 570 Kbps Writing application : Lavf56.25.101 Video ID : 1 Format : AVC Format/Info : Advanced Video Codec Format profile : High@L3.1 Format settings, CABAC : Yes Format settings, ReFrames : 4 frames Codec ID : avc1 Codec ID/Info : Advanced Video Coding Duration : 19s 560ms Bit rate : 1 485 Kbps Width : 960 pixels Height : 720 pixels Display aspect ratio : 4:3 Frame rate mode : Constant Frame rate : 25.000 fps Color space : YUV Chroma subsampling : 4:2:0 Bit depth : 8 bits Scan type : Progressive Bits/(PixelFrame) : 0.086 Stream size : 3.47 MiB (95%) Writing library : x264 core 142 Encoding settings : cabac=1 / ref=3 / deblock=1:0:0 / analyse=0x3:0x113 / me=hex / subme=7 / psy=1 / psy_rd=1.00:0.00 / mixed_ref=1 / me_range=16 / chroma_me=1 / trellis=1 / 8x8dct=1 / cqm=0 / deadzone=21,11 / fast_pskip=1 / chroma_qp_offset=-2 / threads=4 / lookahead_threads=1 / sliced_threads=0 / nr=0 / decimate=1 / interlaced=0 / bluray_compat=0 / constrained_intra=0 / bframes=3 / b_pyramid=2 / b_adapt=1 / b_bias=0 / direct=1 / weightb=1 / open_gop=0 / weightp=2 / keyint=25 / keyint_min=2 / scenecut=40 / intra_refresh=0 / rc_lookahead=25 / rc=2pass / mbtree=1 / bitrate=1485 / ratetol=1.0 / qcomp=0.60 / qpmin=0 / qpmax=69 / qpstep=4 / cplxblur=20.0 / qblur=0.5 / ip_ratio=1.40 / aq=1:1.00 Audio ID : 2 Format : AAC Format/Info : Advanced Audio Codec Format profile : LC Codec ID : 40 Duration : 19s 528ms Bit rate mode : Variable Bit rate : 76.9 Kbps Maximum bit rate : 192 Kbps Channel(s) : 2 channels Channel positions : Front: L R Sampling rate : 44.1 KHz Compression mode : Lossy Stream size : 183 KiB (5%) [/code] [code] General Complete name : D:\Downloads\дтп - 480x360.mpeg Format : MPEG-4 Format profile : Base Media Codec ID : isom File size : 2.33 MiB Duration : 32s 700ms Overall bit rate : 597 Kbps Writing application : Lavf55.48.100 Video ID : 1 Format : AVC Format/Info : Advanced Video Codec Format profile : Baseline@L3 Format settings, CABAC : No Format settings, ReFrames : 3 frames Format settings, GOP : M=1, N=30 Codec ID : avc1 Codec ID/Info : Advanced Video Coding Duration : 32s 700ms Bit rate : 462 Kbps Nominal bit rate : 495 Kbps Width : 640 pixels Height : 360 pixels Display aspect ratio : 16:9 Frame rate mode : Constant Frame rate : 29.970 fps Color space : YUV Chroma subsampling : 4:2:0 Bit depth : 8 bits Scan type : Progressive Bits/(PixelFrame) : 0.067 Stream size : 1.80 MiB (77%) Writing library : x264 core 142 Encoding settings : cabac=0 / ref=3 / deblock=1:0:0 / analyse=0x1:0x111 / me=hex / subme=7 / psy=1 / psy_rd=1.00:0.00 / mixed_ref=1 / me_range=16 / chroma_me=1 / trellis=1 / 8x8dct=0 / cqm=0 / deadzone=21,11 / fast_pskip=1 / chroma_qp_offset=-2 / threads=4 / lookahead_threads=1 / sliced_threads=0 / nr=0 / decimate=1 / interlaced=0 / bluray_compat=0 / constrained_intra=0 / bframes=0 / weightp=0 / keyint=30 / keyint_min=3 / scenecut=40 / intra_refresh=0 / rc_lookahead=30 / rc=abr / mbtree=1 / bitrate=495 / ratetol=1.0 / qcomp=0.60 / qpmin=0 / qpmax=69 / qpstep=4 / ip_ratio=1.40 / aq=1:1.00 Audio ID : 2 Format : AAC Format/Info : Advanced Audio Codec Format profile : LC Codec ID : 40 Duration : 32s 648ms Bit rate mode : Constant Bit rate : 128 Kbps Channel(s) : 2 channels Channel positions : Front: L R Sampling rate : 44.1 KHz Compression mode : Lossy Stream size : 510 KiB (21%) [/code] [code] General Complete name : D:\Downloads\2016-03-02-02-13-30 - 720x540.mpeg Format : MPEG-4 Format profile : Base Media Codec ID : isom File size : 3.01 MiB Duration : 11s 757ms Overall bit rate mode : Variable Overall bit rate : 2 148 Kbps Writing application : Lavf56.25.101 Video ID : 1 Format : AVC Format/Info : Advanced Video Codec Format profile : High@L3.1 Format settings, CABAC : Yes Format settings, ReFrames : 4 frames Codec ID : avc1 Codec ID/Info : Advanced Video Coding Duration : 11s 712ms Bit rate : 1 980 Kbps Width : 1 280 pixels Height : 720 pixels Display aspect ratio : 16:9 Frame rate mode : Constant Frame rate : 29.970 fps Color space : YUV Chroma subsampling : 4:2:0 Bit depth : 8 bits Scan type : Progressive Bits/(PixelFrame) : 0.072 Stream size : 2.79 MiB (92%) Writing library : x264 core 142 Encoding settings : cabac=1 / ref=3 / deblock=1:0:0 / analyse=0x3:0x113 / me=hex / subme=7 / psy=1 / psy_rd=1.00:0.00 / mixed_ref=1 / me_range=16 / chroma_me=1 / trellis=1 / 8x8dct=1 / cqm=0 / deadzone=21,11 / fast_pskip=1 / chroma_qp_offset=-2 / threads=4 / lookahead_threads=1 / sliced_threads=0 / nr=0 / decimate=1 / interlaced=0 / bluray_compat=0 / constrained_intra=0 / bframes=3 / b_pyramid=2 / b_adapt=1 / b_bias=0 / direct=1 / weightb=1 / open_gop=0 / weightp=2 / keyint=30 / keyint_min=3 / scenecut=40 / intra_refresh=0 / rc_lookahead=30 / rc=2pass / mbtree=1 / bitrate=1980 / ratetol=1.0 / qcomp=0.60 / qpmin=0 / qpmax=69 / qpstep=4 / cplxblur=20.0 / qblur=0.5 / ip_ratio=1.40 / aq=1:1.00 Audio ID : 2 Format : AAC Format/Info : Advanced Audio Codec Format profile : LC Codec ID : 40 Duration : 11s 757ms Duration_LastFrame : -16ms Bit rate mode : Variable Bit rate : 152 Kbps Maximum bit rate : 192 Kbps Channel(s) : 2 channels Channel positions : Front: L R Sampling rate : 44.1 KHz Compression mode : Lossy Stream size : 218 KiB (7%) [/code][/spoiler] Не проигрываются: [spoiler][code] General Complete name : D:\Downloads\авария колин новой машины - 720x540.mpeg Format : MPEG-4 Format profile : Base Media Codec ID : isom File size : 19.3 MiB Duration : 1mn 21s Overall bit rate mode : Variable Overall bit rate : 1 989 Kbps Writing application : Lavf56.25.101 Video ID : 1 Format : AVC Format/Info : Advanced Video Codec Format profile : High@L3.1 Format settings, CABAC : Yes Format settings, ReFrames : 4 frames Codec ID : avc1 Codec ID/Info : Advanced Video Coding Duration : 1mn 21s Bit rate : 1 980 Kbps Width : 1 280 pixels Height : 720 pixels Display aspect ratio : 16:9 Frame rate mode : Constant Frame rate : 25.000 fps Color space : YUV Chroma subsampling : 4:2:0 Bit depth : 8 bits Scan type : Progressive Bits/(PixelFrame) : 0.086 Stream size : 19.2 MiB (100%) Writing library : x264 core 142 Encoding settings : cabac=1 / ref=3 / deblock=1:0:0 / analyse=0x3:0x113 / me=hex / subme=7 / psy=1 / psy_rd=1.00:0.00 / mixed_ref=1 / me_range=16 / chroma_me=1 / trellis=1 / 8x8dct=1 / cqm=0 / deadzone=21,11 / fast_pskip=1 / chroma_qp_offset=-2 / threads=4 / lookahead_threads=1 / sliced_threads=0 / nr=0 / decimate=1 / interlaced=0 / bluray_compat=0 / constrained_intra=0 / bframes=3 / b_pyramid=2 / b_adapt=1 / b_bias=0 / direct=1 / weightb=1 / open_gop=0 / weightp=2 / keyint=25 / keyint_min=2 / scenecut=40 / intra_refresh=0 / rc_lookahead=25 / rc=2pass / mbtree=1 / bitrate=1980 / ratetol=1.0 / qcomp=0.60 / qpmin=0 / qpmax=69 / qpstep=4 / cplxblur=20.0 / qblur=0.5 / ip_ratio=1.40 / aq=1:1.00 Audio ID : 2 Format : AAC Format/Info : Advanced Audio Codec Format profile : LC Codec ID : 40 Duration : 1mn 21s Bit rate mode : Variable Bit rate : 3 102 bps Maximum bit rate : 192 Kbps Channel(s) : 2 channels Channel positions : Front: L R Sampling rate : 44.1 KHz Compression mode : Lossy Stream size : 30.9 KiB (0%) [/code] [code] General Complete name : D:\Downloads\ДТП - 720x540 (9).mpeg Format : MPEG-4 Format profile : Base Media Codec ID : isom File size : 30.8 MiB Duration : 2mn 10s Overall bit rate mode : Variable Overall bit rate : 1 979 Kbps Writing application : Lavf55.48.100 Video ID : 1 Format : AVC Format/Info : Advanced Video Codec Format profile : High@L3.1 Format settings, CABAC : Yes Format settings, ReFrames : 4 frames Codec ID : avc1 Codec ID/Info : Advanced Video Coding Duration : 2mn 10s Bit rate : 1 980 Kbps Width : 1 280 pixels Height : 720 pixels Display aspect ratio : 16:9 Frame rate mode : Constant Frame rate : 30.000 fps Color space : YUV Chroma subsampling : 4:2:0 Bit depth : 8 bits Scan type : Progressive Bits/(Pixel*Frame) : 0.072 Stream size : 30.6 MiB (99%) Writing library : x264 core 142 Encoding settings : cabac=1 / ref=3 / deblock=1:0:0 / analyse=0x3:0x113 / me=hex / subme=7 / psy=1 / psy_rd=1.00:0.00 / mixed_ref=1 / me_range=16 / chroma_me=1 / trellis=1 / 8x8dct=1 / cqm=0 / deadzone=21,11 / fast_pskip=1 / chroma_qp_offset=-2 / threads=4 / lookahead_threads=1 / sliced_threads=0 / nr=0 / decimate=1 / interlaced=0 / bluray_compat=0 / constrained_intra=0 / bframes=3 / b_pyramid=2 / b_adapt=1 / b_bias=0 / direct=1 / weightb=1 / open_gop=0 / weightp=2 / keyint=30 / keyint_min=3 / scenecut=40 / intra_refresh=0 / rc_lookahead=30 / rc=2pass / mbtree=1 / bitrate=1980 / ratetol=1.0 / qcomp=0.60 / qpmin=0 / qpmax=69 / qpstep=4 / cplxblur=20.0 / qblur=0.5 / ip_ratio=1.40 / aq=1:1.00 Audio ID : 2 Format : AAC Format/Info : Advanced Audio Codec Format profile : LC Codec ID : 40 Duration : 2mn 10s Bit rate mode : Variable Bit rate : 13.8 Kbps Maximum bit rate : 48.0 Kbps Channel(s) : 2 channels Channel(s)_Original : 1 channel Channel positions : Front: C Sampling rate : 8 000 Hz Compression mode : Lossy Stream size : 220 KiB (1%) [/code][/spoiler] Ссылки: Проигрываются https://vk.com/video10037247_456239018?hash=a5097ebecf764a07 https://vk.com/video10871258_456239017?hash=85da87219747f7be https://vk.com/video278751073_456239017?hash=abde52052292819a Не проигрываются https://vk.com/video305255238_456239017?hash=1444c653443cf746 https://vk.com/video236952358_456239017?hash=6860087ff516adb0



  • У меня проигрывается видео по всем ссылкам что выше. Без проблем



  • Ок. Значит проблема у меня, будем разбираться.



  • Установка на чистую помогла.



  • Пора уже сделать какую-то зачистку кэша/куков/старых версий.
    Чтобы браузер становился чистым без переустановки.



  • @tuder:

    Пора уже сделать какую-то зачистку кэша/куков/старых версий.
    Чтобы браузер становился чистым без переустановки.

    Решение этого вопроса давно напрашивается.
    Или удобный экспорт-импорт. Или кнопка "Сбросить по умолчанию" с возможностью сохранить пароли-закладки.
    Использовать бета ветку как постоянный браузер неудобно. С одной стороны, выходят редко, недопиленного в них много, во второй вообще бага была с яндексом. С другой - как баги отлавливать, если браузером не пользоваться в повседневной работе?


  • Vivaldi Team

    @tuder:

    Пора уже сделать какую-то зачистку кэша/куков/старых версий.
    Чтобы браузер становился чистым без переустановки.

    Вообще, тестовые сборки разработчики советуют ставить в standalone режиме - всегда чистая установка.



  • @Shpankov:

    Вообще, тестовые сборки разработчики советуют ставить в standalone режиме - всегда чистая установка.

    И раз в неделю заморачиваться с переносом паролей, расширений, закладок и т.д?
    Сделать основным бету, значит запускать снапшот раз в полгода.


  • Vivaldi Team

    @Mozgoved:

    @Shpankov:

    Вообще, тестовые сборки разработчики советуют ставить в standalone режиме - всегда чистая установка.

    И раз в неделю заморачиваться с переносом паролей, расширений, закладок и т.д?
    Сделать основным бету, значит запускать снапшот раз в полгода.

    На самом деле там всего несколько папок и файлов перенести нужно.



  • @Shpankov:

    @Mozgoved:

    @Shpankov:

    Вообще, тестовые сборки разработчики советуют ставить в standalone режиме - всегда чистая установка.

    И раз в неделю заморачиваться с переносом паролей, расширений, закладок и т.д?
    Сделать основным бету, значит запускать снапшот раз в полгода.

    На самом деле там всего несколько папок и файлов перенести нужно.

    Просветите как и чего. )



  • @Shpankov:

    @Mozgoved:

    @Shpankov:

    Вообще, тестовые сборки разработчики советуют ставить в standalone режиме - всегда чистая установка.

    И раз в неделю заморачиваться с переносом паролей, расширений, закладок и т.д?
    Сделать основным бету, значит запускать снапшот раз в полгода.

    На самом деле там всего несколько папок и файлов перенести нужно.

    А ещё поставить несколько расширений, настроить их. Одно из них распакованное, есть только в Opera store. Поменять некоторые настройки под себя (поиск, масштаб по умолчанию и т.д.). И это я ещё не особо фанат кастомизации и расширений немного.
    Ладно. Не нужно, так не нужно.



  • Ну, это ведь просто рекомендации. Ведь автообновление для снапшотов доступно. Для тех, кто активно следит за ченжлогами каждой сборки – установки каждого снапшота с нуля, как по мне, не нужны. Другое дело, что прежде чем сообщить о найденном баге, нужно обязательно поставить крайнюю сборку в standalone и, таким образом, воспроизвести на чистом профиле.

    @Grey_rnd:

    Просветите как и чего. )

    https://vivaldi.net/ru/userblogs/entry/rezervnoe-kopirovanie-i-perenos-dannykh-v-brauzere-vivaldi


Log in to reply
 

Looks like your connection to Vivaldi Forum was lost, please wait while we try to reconnect.